" Movie Release Center " Joker BluRay 1080p

LBJ4Ever

FedExpress
کاربر فعال
Apr 11, 2011
6,010
1,382
نام
Afshin




Interstellar 2014 720p Bluray x264 DTS-EVO

RunTime: 2h47m34sec

ویدیو :
MKV | 1280×536 | 6500 Kbps

صدا :
English | DTS | 1509 kbps

حجم فایل :
9.4GB
 

LBJ4Ever

FedExpress
کاربر فعال
Apr 11, 2011
6,010
1,382
نام
Afshin
Ganool هم نسخه کم حجمشو بیرون داد.
 

LiFE iS 5TrAnG3

⏎千ㄖ尺 乇ᐯ乇尺
کاربر فعال
Feb 22, 2011
14,165
70,071
نام
∂αнмα
دوستانی که میخوان هم با کیفیت باشه همم حجمش فضایی نباشه Interstellar 2014 1080p BluRay H264 AAC-RARBG با حجم 3.23 گیگابایت رو یـ امتحانی بزنین ;) هر چند ارزشش رو داره واسه این فیلم 42 گیگابایت حجم (Interstellar 2014 1080p BluRay AVC DTS-HD MA 5 1-RARBG با حجم 42 گیگابایت) خرج کرد ....

Interstellar 2014 1080p BluRay H264 AAC-RARBG
Code:
[B][COLOR=#333333][FONT=Verdana]Video[/FONT][/COLOR][/B]
[COLOR=#333333][FONT=Verdana]ID : 1[/FONT][/COLOR]
[COLOR=#333333][FONT=Verdana]Format : AVC[/FONT][/COLOR]
[COLOR=#333333][FONT=Verdana]Format/Info : Advanced Video Codec[/FONT][/COLOR]
[COLOR=#333333][FONT=Verdana]Format profile : High@L4.1[/FONT][/COLOR]
[COLOR=#333333][FONT=Verdana]Format settings, CABAC : Yes[/FONT][/COLOR]
[COLOR=#333333][FONT=Verdana]Format settings, ReFrames : 4 frames[/FONT][/COLOR]
[COLOR=#333333][FONT=Verdana]Codec ID : avc1[/FONT][/COLOR]
[COLOR=#333333][FONT=Verdana]Codec ID/Info : Advanced Video Coding[/FONT][/COLOR]
[COLOR=#333333][FONT=Verdana]Duration : 2h 49mn[/FONT][/COLOR]
[COLOR=#333333][FONT=Verdana]Bit rate : 2 500 Kbps[/FONT][/COLOR]
[COLOR=#333333][FONT=Verdana]Width : 1 920 pixels[/FONT][/COLOR]
[COLOR=#333333][FONT=Verdana]Height : 1 080 pixels[/FONT][/COLOR]
[COLOR=#333333][FONT=Verdana]Display aspect ratio : 16:9[/FONT][/COLOR]
[COLOR=#333333][FONT=Verdana]Frame rate mode : Constant[/FONT][/COLOR]
[COLOR=#333333][FONT=Verdana]Frame rate : 23.976 fps[/FONT][/COLOR]
[COLOR=#333333][FONT=Verdana]Color space : YUV[/FONT][/COLOR]
[COLOR=#333333][FONT=Verdana]Chroma subsampling : 4:2:0[/FONT][/COLOR]
[COLOR=#333333][FONT=Verdana]Bit depth : 8 bits[/FONT][/COLOR]
[COLOR=#333333][FONT=Verdana]Scan type : Progressive[/FONT][/COLOR]
[COLOR=#333333][FONT=Verdana]Bits/(Pixel*Frame) : 0.050[/FONT][/COLOR]
[COLOR=#333333][FONT=Verdana]Stream size : 2.95 GiB (92%)[/FONT][/COLOR]
[COLOR=#333333][FONT=Verdana]Writing library : x264 core 144 r2525M 40bb568[/FONT][/COLOR]
[COLOR=#333333][FONT=Verdana]Encoding settings : cabac=1 / ref=4 / deblock=1:-1:-1 / analyse=0x3:0x113 / me=umh / subme=9 / psy=1 / psy_rd=1.00:0.15 / mixed_ref=1 / me_range=24 / chroma_me=1 / trellis=2 / 8x8dct=1 / cqm=0 / deadzone=21,11 / fast_pskip=1 / chroma_qp_offset=-3 / threads=32 / lookahead_threads=4 / sliced_threads=0 / nr=0 / decimate=1 / interlaced=0 / bluray_compat=0 / constrained_intra=0 / bframes=3 / b_pyramid=2 / b_adapt=1 / b_bias=0 / direct=1 / weightb=1 / open_gop=0 / weightp=2 / keyint=250 / keyint_min=25 / scenecut=40 / intra_refresh=0 / rc_lookahead=50 / rc=2pass / mbtree=1 / bitrate=2500 / ratetol=1.0 / qcomp=0.60 / qpmin=0 / qpmax=69 / qpstep=4 / cplxblur=20.0 / qblur=0.5 / vbv_maxrate=31250 / vbv_bufsize=31250 / nal_hrd=none / filler=0 / ip_ratio=1.40 / aq=3:1.00[/FONT][/COLOR]
[COLOR=#333333][FONT=Verdana]Encoded date : UTC 1904-01-01 00:00:00[/FONT][/COLOR]
[COLOR=#333333][FONT=Verdana]Tagged date : UTC 1904-01-01 00:00:00[/FONT][/COLOR]

[B][COLOR=#333333][FONT=Verdana]Audio[/FONT][/COLOR][/B]
[COLOR=#333333][FONT=Verdana]ID : 2[/FONT][/COLOR]
[COLOR=#333333][FONT=Verdana]Format : AAC[/FONT][/COLOR]
[COLOR=#333333][FONT=Verdana]Format/Info : Advanced Audio Codec[/FONT][/COLOR]
[COLOR=#333333][FONT=Verdana]Format profile : LC[/FONT][/COLOR]
[COLOR=#333333][FONT=Verdana]Codec ID : 40[/FONT][/COLOR]
[COLOR=#333333][FONT=Verdana]Duration : 2h 49mn[/FONT][/COLOR]
[COLOR=#333333][FONT=Verdana]Bit rate mode : Constant[/FONT][/COLOR]
[COLOR=#333333][FONT=Verdana]Bit rate : 224 Kbps[/FONT][/COLOR]
[COLOR=#333333][FONT=Verdana]Channel(s) : 2 channels[/FONT][/COLOR]
[COLOR=#333333][FONT=Verdana]Channel(s)_Original : 6 channels[/FONT][/COLOR]
[COLOR=#333333][FONT=Verdana]Channel positions : Front: L C R, Side: L R, LFE[/FONT][/COLOR]
[COLOR=#333333][FONT=Verdana]Sampling rate : 48.0 KHz[/FONT][/COLOR]
[COLOR=#333333][FONT=Verdana]Compression mode : Lossy[/FONT][/COLOR]
[COLOR=#333333][FONT=Verdana]Stream size : 271 MiB (8%)[/FONT][/COLOR]
[COLOR=#333333][FONT=Verdana]Language : English[/FONT][/COLOR]
[COLOR=#333333][FONT=Verdana]Encoded date : UTC 1904-01-01 00:00:00[/FONT][/COLOR]
[COLOR=#333333][FONT=Verdana]Tagged date : UTC 1904-01-01 00:00:00[/FONT][/COLOR]

[B][COLOR=#333333][FONT=Verdana]Menu #1[/FONT][/COLOR][/B]
[COLOR=#333333][FONT=Verdana]ID : 3[/FONT][/COLOR]
[COLOR=#333333][FONT=Verdana]Codec ID : text[/FONT][/COLOR]
[COLOR=#333333][FONT=Verdana]Duration : 2h 49mn[/FONT][/COLOR]
[COLOR=#333333][FONT=Verdana]Language : English[/FONT][/COLOR]
[COLOR=#333333][FONT=Verdana]Encoded date : UTC 1904-01-01 00:00:00[/FONT][/COLOR]
[COLOR=#333333][FONT=Verdana]Tagged date : UTC 1904-01-01 00:00:00[/FONT][/COLOR]
[COLOR=#333333][FONT=Verdana]Bit rate mode : CBR[/FONT][/COLOR]
[COLOR=#333333][FONT=Verdana]00:00:00.000 : Chapter 01[/FONT][/COLOR]
[COLOR=#333333][FONT=Verdana]00:09:35.243 : Chapter 02[/FONT][/COLOR]
[COLOR=#333333][FONT=Verdana]00:17:12.241 : Chapter 03[/FONT][/COLOR]
[COLOR=#333333][FONT=Verdana]00:25:00.668 : Chapter 04[/FONT][/COLOR]
[COLOR=#333333][FONT=Verdana]00:35:45.061 : Chapter 05[/FONT][/COLOR]
[COLOR=#333333][FONT=Verdana]00:42:16.786 : Chapter 06[/FONT][/COLOR]
[COLOR=#333333][FONT=Verdana]00:50:19.518 : Chapter 07[/FONT][/COLOR]
[COLOR=#333333][FONT=Verdana]00:54:47.745 : Chapter 08[/FONT][/COLOR]
[COLOR=#333333][FONT=Verdana]00:58:59.329 : Chapter 09[/FONT][/COLOR]
[COLOR=#333333][FONT=Verdana]01:06:14.931 : Chapter 10[/FONT][/COLOR]
[COLOR=#333333][FONT=Verdana]01:17:27.978 : Chapter 11[/FONT][/COLOR]
[COLOR=#333333][FONT=Verdana]01:25:31.920 : Chapter 12[/FONT][/COLOR]
[COLOR=#333333][FONT=Verdana]01:34:31.918 : Chapter 13[/FONT][/COLOR]
[COLOR=#333333][FONT=Verdana]01:46:14.620 : Chapter 14[/FONT][/COLOR]
[COLOR=#333333][FONT=Verdana]01:55:34.471 : Chapter 15[/FONT][/COLOR]
[COLOR=#333333][FONT=Verdana]02:02:14.287 : Chapter 16[/FONT][/COLOR]
[COLOR=#333333][FONT=Verdana]02:12:56.762 : Chapter 17[/FONT][/COLOR]
[COLOR=#333333][FONT=Verdana]02:20:53.739 : Chapter 18[/FONT][/COLOR]
[COLOR=#333333][FONT=Verdana]02:35:12.013 : Chapter 19[/FONT][/COLOR]
[COLOR=#333333][FONT=Verdana]02:43:59.790 : Chapter 20[/FONT][/COLOR]

[B][COLOR=#333333][FONT=Verdana]Menu #2[/FONT][/COLOR][/B]
[COLOR=#333333][FONT=Verdana]00:00:00.043 : Chapter 01[/FONT][/COLOR]
[COLOR=#333333][FONT=Verdana]00:09:35.243 : Chapter 02[/FONT][/COLOR]
[COLOR=#333333][FONT=Verdana]00:17:12.241 : Chapter 03[/FONT][/COLOR]
[COLOR=#333333][FONT=Verdana]00:25:00.668 : Chapter 04[/FONT][/COLOR]
[COLOR=#333333][FONT=Verdana]00:35:45.061 : Chapter 05[/FONT][/COLOR]
[COLOR=#333333][FONT=Verdana]00:42:16.786 : Chapter 06[/FONT][/COLOR]
[COLOR=#333333][FONT=Verdana]00:50:19.518 : Chapter 07[/FONT][/COLOR]
[COLOR=#333333][FONT=Verdana]00:54:47.745 : Chapter 08[/FONT][/COLOR]
[COLOR=#333333][FONT=Verdana]00:58:59.329 : Chapter 09[/FONT][/COLOR]
[COLOR=#333333][FONT=Verdana]01:06:14.931 : Chapter 10[/FONT][/COLOR]
[COLOR=#333333][FONT=Verdana]01:17:27.978 : Chapter 11[/FONT][/COLOR]
[COLOR=#333333][FONT=Verdana]01:25:31.920 : Chapter 12[/FONT][/COLOR]
[COLOR=#333333][FONT=Verdana]01:34:31.918 : Chapter 13[/FONT][/COLOR]
[COLOR=#333333][FONT=Verdana]01:46:14.620 : Chapter 14[/FONT][/COLOR]
[COLOR=#333333][FONT=Verdana]01:55:34.471 : Chapter 15[/FONT][/COLOR]
[COLOR=#333333][FONT=Verdana]02:02:14.287 : Chapter 16[/FONT][/COLOR]
[COLOR=#333333][FONT=Verdana]02:12:56.762 : Chapter 17[/FONT][/COLOR]
[COLOR=#333333][FONT=Verdana]02:20:53.739 : Chapter 18[/FONT][/COLOR]
[COLOR=#333333][FONT=Verdana]02:35:12.013 : Chapter 19[/FONT][/COLOR]
[COLOR=#333333][FONT=Verdana]02:43:59.790 : Chapter 20[/FONT][/COLOR]
 
آخرین ویرایش:

FaRd!N

Nothing as it Seems
کاربر سایت
Aug 30, 2007
14,872
7,988
نام
فردین
دوستانی که میخوان هم با کیفیت باشه همم حجمش فضایی نباشه Interstellar 2014 1080p BluRay H264 AAC-RARBG با حجم 3.23 گیگابایت رو یـ امتحانی بزنین ;) هر چند ارزشش رو داره واسه این فیلم 42 گیگابایت حجم (Interstellar 2014 1080p BluRay AVC DTS-HD MA 5 1-RARBG با حجم 42 گیگابایت) خرج کرد ....

Interstellar 2014 1080p BluRay H264 AAC-RARBG
Code:
[B][COLOR=#333333][FONT=Verdana]Video[/FONT][/COLOR][/B]
[COLOR=#333333][FONT=Verdana]ID : 1[/FONT][/COLOR]
[COLOR=#333333][FONT=Verdana]Format : AVC[/FONT][/COLOR]
[COLOR=#333333][FONT=Verdana]Format/Info : Advanced Video Codec[/FONT][/COLOR]
[COLOR=#333333][FONT=Verdana]Format profile : High@L4.1[/FONT][/COLOR]
[COLOR=#333333][FONT=Verdana]Format settings, CABAC : Yes[/FONT][/COLOR]
[COLOR=#333333][FONT=Verdana]Format settings, ReFrames : 4 frames[/FONT][/COLOR]
[COLOR=#333333][FONT=Verdana]Codec ID : avc1[/FONT][/COLOR]
[COLOR=#333333][FONT=Verdana]Codec ID/Info : Advanced Video Coding[/FONT][/COLOR]
[COLOR=#333333][FONT=Verdana]Duration : 2h 49mn[/FONT][/COLOR]
[COLOR=#333333][FONT=Verdana]Bit rate : 2 500 Kbps[/FONT][/COLOR]
[COLOR=#333333][FONT=Verdana]Width : 1 920 pixels[/FONT][/COLOR]
[COLOR=#333333][FONT=Verdana]Height : 1 080 pixels[/FONT][/COLOR]
[COLOR=#333333][FONT=Verdana]Display aspect ratio : 16:9[/FONT][/COLOR]
[COLOR=#333333][FONT=Verdana]Frame rate mode : Constant[/FONT][/COLOR]
[COLOR=#333333][FONT=Verdana]Frame rate : 23.976 fps[/FONT][/COLOR]
[COLOR=#333333][FONT=Verdana]Color space : YUV[/FONT][/COLOR]
[COLOR=#333333][FONT=Verdana]Chroma subsampling : 4:2:0[/FONT][/COLOR]
[COLOR=#333333][FONT=Verdana]Bit depth : 8 bits[/FONT][/COLOR]
[COLOR=#333333][FONT=Verdana]Scan type : Progressive[/FONT][/COLOR]
[COLOR=#333333][FONT=Verdana]Bits/(Pixel*Frame) : 0.050[/FONT][/COLOR]
[COLOR=#333333][FONT=Verdana]Stream size : 2.95 GiB (92%)[/FONT][/COLOR]
[COLOR=#333333][FONT=Verdana]Writing library : x264 core 144 r2525M 40bb568[/FONT][/COLOR]
[COLOR=#333333][FONT=Verdana]Encoding settings : cabac=1 / ref=4 / deblock=1:-1:-1 / analyse=0x3:0x113 / me=umh / subme=9 / psy=1 / psy_rd=1.00:0.15 / mixed_ref=1 / me_range=24 / chroma_me=1 / trellis=2 / 8x8dct=1 / cqm=0 / deadzone=21,11 / fast_pskip=1 / chroma_qp_offset=-3 / threads=32 / lookahead_threads=4 / sliced_threads=0 / nr=0 / decimate=1 / interlaced=0 / bluray_compat=0 / constrained_intra=0 / bframes=3 / b_pyramid=2 / b_adapt=1 / b_bias=0 / direct=1 / weightb=1 / open_gop=0 / weightp=2 / keyint=250 / keyint_min=25 / scenecut=40 / intra_refresh=0 / rc_lookahead=50 / rc=2pass / mbtree=1 / bitrate=2500 / ratetol=1.0 / qcomp=0.60 / qpmin=0 / qpmax=69 / qpstep=4 / cplxblur=20.0 / qblur=0.5 / vbv_maxrate=31250 / vbv_bufsize=31250 / nal_hrd=none / filler=0 / ip_ratio=1.40 / aq=3:1.00[/FONT][/COLOR]
[COLOR=#333333][FONT=Verdana]Encoded date : UTC 1904-01-01 00:00:00[/FONT][/COLOR]
[COLOR=#333333][FONT=Verdana]Tagged date : UTC 1904-01-01 00:00:00[/FONT][/COLOR]

[B][COLOR=#333333][FONT=Verdana]Audio[/FONT][/COLOR][/B]
[COLOR=#333333][FONT=Verdana]ID : 2[/FONT][/COLOR]
[COLOR=#333333][FONT=Verdana]Format : AAC[/FONT][/COLOR]
[COLOR=#333333][FONT=Verdana]Format/Info : Advanced Audio Codec[/FONT][/COLOR]
[COLOR=#333333][FONT=Verdana]Format profile : LC[/FONT][/COLOR]
[COLOR=#333333][FONT=Verdana]Codec ID : 40[/FONT][/COLOR]
[COLOR=#333333][FONT=Verdana]Duration : 2h 49mn[/FONT][/COLOR]
[COLOR=#333333][FONT=Verdana]Bit rate mode : Constant[/FONT][/COLOR]
[COLOR=#333333][FONT=Verdana]Bit rate : 224 Kbps[/FONT][/COLOR]
[COLOR=#333333][FONT=Verdana]Channel(s) : 2 channels[/FONT][/COLOR]
[COLOR=#333333][FONT=Verdana]Channel(s)_Original : 6 channels[/FONT][/COLOR]
[COLOR=#333333][FONT=Verdana]Channel positions : Front: L C R, Side: L R, LFE[/FONT][/COLOR]
[COLOR=#333333][FONT=Verdana]Sampling rate : 48.0 KHz[/FONT][/COLOR]
[COLOR=#333333][FONT=Verdana]Compression mode : Lossy[/FONT][/COLOR]
[COLOR=#333333][FONT=Verdana]Stream size : 271 MiB (8%)[/FONT][/COLOR]
[COLOR=#333333][FONT=Verdana]Language : English[/FONT][/COLOR]
[COLOR=#333333][FONT=Verdana]Encoded date : UTC 1904-01-01 00:00:00[/FONT][/COLOR]
[COLOR=#333333][FONT=Verdana]Tagged date : UTC 1904-01-01 00:00:00[/FONT][/COLOR]

[B][COLOR=#333333][FONT=Verdana]Menu #1[/FONT][/COLOR][/B]
[COLOR=#333333][FONT=Verdana]ID : 3[/FONT][/COLOR]
[COLOR=#333333][FONT=Verdana]Codec ID : text[/FONT][/COLOR]
[COLOR=#333333][FONT=Verdana]Duration : 2h 49mn[/FONT][/COLOR]
[COLOR=#333333][FONT=Verdana]Language : English[/FONT][/COLOR]
[COLOR=#333333][FONT=Verdana]Encoded date : UTC 1904-01-01 00:00:00[/FONT][/COLOR]
[COLOR=#333333][FONT=Verdana]Tagged date : UTC 1904-01-01 00:00:00[/FONT][/COLOR]
[COLOR=#333333][FONT=Verdana]Bit rate mode : CBR[/FONT][/COLOR]
[COLOR=#333333][FONT=Verdana]00:00:00.000 : Chapter 01[/FONT][/COLOR]
[COLOR=#333333][FONT=Verdana]00:09:35.243 : Chapter 02[/FONT][/COLOR]
[COLOR=#333333][FONT=Verdana]00:17:12.241 : Chapter 03[/FONT][/COLOR]
[COLOR=#333333][FONT=Verdana]00:25:00.668 : Chapter 04[/FONT][/COLOR]
[COLOR=#333333][FONT=Verdana]00:35:45.061 : Chapter 05[/FONT][/COLOR]
[COLOR=#333333][FONT=Verdana]00:42:16.786 : Chapter 06[/FONT][/COLOR]
[COLOR=#333333][FONT=Verdana]00:50:19.518 : Chapter 07[/FONT][/COLOR]
[COLOR=#333333][FONT=Verdana]00:54:47.745 : Chapter 08[/FONT][/COLOR]
[COLOR=#333333][FONT=Verdana]00:58:59.329 : Chapter 09[/FONT][/COLOR]
[COLOR=#333333][FONT=Verdana]01:06:14.931 : Chapter 10[/FONT][/COLOR]
[COLOR=#333333][FONT=Verdana]01:17:27.978 : Chapter 11[/FONT][/COLOR]
[COLOR=#333333][FONT=Verdana]01:25:31.920 : Chapter 12[/FONT][/COLOR]
[COLOR=#333333][FONT=Verdana]01:34:31.918 : Chapter 13[/FONT][/COLOR]
[COLOR=#333333][FONT=Verdana]01:46:14.620 : Chapter 14[/FONT][/COLOR]
[COLOR=#333333][FONT=Verdana]01:55:34.471 : Chapter 15[/FONT][/COLOR]
[COLOR=#333333][FONT=Verdana]02:02:14.287 : Chapter 16[/FONT][/COLOR]
[COLOR=#333333][FONT=Verdana]02:12:56.762 : Chapter 17[/FONT][/COLOR]
[COLOR=#333333][FONT=Verdana]02:20:53.739 : Chapter 18[/FONT][/COLOR]
[COLOR=#333333][FONT=Verdana]02:35:12.013 : Chapter 19[/FONT][/COLOR]
[COLOR=#333333][FONT=Verdana]02:43:59.790 : Chapter 20[/FONT][/COLOR]

[B][COLOR=#333333][FONT=Verdana]Menu #2[/FONT][/COLOR][/B]
[COLOR=#333333][FONT=Verdana]00:00:00.043 : Chapter 01[/FONT][/COLOR]
[COLOR=#333333][FONT=Verdana]00:09:35.243 : Chapter 02[/FONT][/COLOR]
[COLOR=#333333][FONT=Verdana]00:17:12.241 : Chapter 03[/FONT][/COLOR]
[COLOR=#333333][FONT=Verdana]00:25:00.668 : Chapter 04[/FONT][/COLOR]
[COLOR=#333333][FONT=Verdana]00:35:45.061 : Chapter 05[/FONT][/COLOR]
[COLOR=#333333][FONT=Verdana]00:42:16.786 : Chapter 06[/FONT][/COLOR]
[COLOR=#333333][FONT=Verdana]00:50:19.518 : Chapter 07[/FONT][/COLOR]
[COLOR=#333333][FONT=Verdana]00:54:47.745 : Chapter 08[/FONT][/COLOR]
[COLOR=#333333][FONT=Verdana]00:58:59.329 : Chapter 09[/FONT][/COLOR]
[COLOR=#333333][FONT=Verdana]01:06:14.931 : Chapter 10[/FONT][/COLOR]
[COLOR=#333333][FONT=Verdana]01:17:27.978 : Chapter 11[/FONT][/COLOR]
[COLOR=#333333][FONT=Verdana]01:25:31.920 : Chapter 12[/FONT][/COLOR]
[COLOR=#333333][FONT=Verdana]01:34:31.918 : Chapter 13[/FONT][/COLOR]
[COLOR=#333333][FONT=Verdana]01:46:14.620 : Chapter 14[/FONT][/COLOR]
[COLOR=#333333][FONT=Verdana]01:55:34.471 : Chapter 15[/FONT][/COLOR]
[COLOR=#333333][FONT=Verdana]02:02:14.287 : Chapter 16[/FONT][/COLOR]
[COLOR=#333333][FONT=Verdana]02:12:56.762 : Chapter 17[/FONT][/COLOR]
[COLOR=#333333][FONT=Verdana]02:20:53.739 : Chapter 18[/FONT][/COLOR]
[COLOR=#333333][FONT=Verdana]02:35:12.013 : Chapter 19[/FONT][/COLOR]
[COLOR=#333333][FONT=Verdana]02:43:59.790 : Chapter 20[/FONT][/COLOR]
@KiLL3R/4/Ev3r
پیشنهاد میکنم RARBG نگیرین. من خودم خیلی وقت بود از این گروه استفاده میکردم اما جدیدا واقعا کاراشون افتضاح شده. همین کارای 4 گیگ ـشون وسط فیلم و اکثرا تو صحنه هایی که دوربین یا یه جسم با سرعت داره حرکت میکنه، صفحه شطرنجی میشه که حتی روی مونیتور لپ تاپم هم کاملا مشهوده.
 

Red Ѵ

Red Devil
کاربر سایت
Jul 9, 2014
7,192
7,699
نام
وحید
کلا همیشه اینجا گفته شده :D

برای دوستانی که کم حجم میپسندن، Ganool ( بعنوان مثال افرادی مثل خودم :D) و برای دوستانی که کیفیت میپسندن، بدون شک YIFY :D

کلا غیر اینا برای فیلم نگیرید :D
 

LiFE iS 5TrAnG3

⏎千ㄖ尺 乇ᐯ乇尺
کاربر فعال
Feb 22, 2011
14,165
70,071
نام
∂αнмα
@KiLL3R/4/Ev3r
پیشنهاد میکنم RARBG نگیرین. من خودم خیلی وقت بود از این گروه استفاده میکردم اما جدیدا واقعا کاراشون افتضاح شده. همین کارای 4 گیگ ـشون وسط فیلم و اکثرا تو صحنه هایی که دوربین یا یه جسم با سرعت داره حرکت میکنه، صفحه شطرنجی میشه که حتی روی مونیتور لپ تاپم هم کاملا مشهوده.
پس با این حساب 3 گیگ از اکانت Mul ـم به F رفت :(( کسی نیست این ورژن رو گرفته باشه ؟
کلا همیشه اینجا گفته شده :D

برای دوستانی که کم حجم میپسندن، Ganool ( بعنوان مثال افرادی مثل خودم :D) و برای دوستانی که کیفیت میپسندن، بدون شک YIFY :D

کلا غیر اینا برای فیلم نگیرید :D
چی گفتی !! هر دو اینا هم کیفیت و هم حجمشون یکیه بعضی وقت ها گانول بهتره بعضی وقت ها هم Yify بعدم چیزی که این دو تا گروه رو معروف کرده علاوه بر کیفیتشون بروز بودنشونه وگرنه هرکی که یـ سیستم قوی داشته باشه میتونه راحت انکود با کیفیت بیرون بده ....
 

Red Ѵ

Red Devil
کاربر سایت
Jul 9, 2014
7,192
7,699
نام
وحید
چی گفتی !!
Ganool ورژن های 700 تا 1.5 گیگی اش معروف هستند و بیشتر استفاده میشه و YIFY هم بیشتر بخطر ریلیز های BRRip اش معروف هستند که از همون 3 الی 50 گیگ هست.
بخاطر همین این دوتا کلا بهترین انکودر ها هستند.
 

.:Metallica:.

Angst, Zweifel und Unglauben
کاربر سایت
Sep 18, 2008
4,281
1,230
نام
علی متالیکا
دوستان من دارم این رو میگیرم، چطوره دانلودش کنم یا وایسم Ganool یا YIFY بیاد ؟
حجمش 13gb ـه تقریبا 3 گیگش رو گرفتم.

Interstellar 2014 IMAX 1080p Bluray x264 DTS-EVO
-----------------------

مشکلی نیست، بگیر نگاه کن لذت ببر. ولی خب برای مطمئن بودن همیشه تو این حجم برای YIFY صبر کن
EVO نگیری ایکاش اینکورد های بهتر هم هستن
این EVO چندبار فیک داده بود قبلا از چشمم افتاده
Amiabale نداده هنوز؟ اگه داده مال اونو دانلود کن. یا مثلا مال SPARK رو.
ممنون از راهنمایی دوستان فعلا دانلود رو Pause کردم، تا ببینم انکودر های بهتر کی میان.
 
آخرین ویرایش:

Red Ѵ

Red Devil
کاربر سایت
Jul 9, 2014
7,192
7,699
نام
وحید
دوستان من دارم این رو میگیرم، چطوره دانلودش کنم یا وایسم Ganool یا YIFY بیاد ؟
حجمش 13gb ـه تقریبا 3 گیگش رو گرفتم.

Interstellar 2014 IMAX 1080p Bluray x264 DTS-EVO
مشکلی نیست، بگیر نگاه کن لذت ببر. ولی خب برای مطمئن بودن همیشه تو این حجم برای YIFY صبر کن :D
 

FaRd!N

Nothing as it Seems
کاربر سایت
Aug 30, 2007
14,872
7,988
نام
فردین
دوستان من دارم این رو میگیرم، چطوره دانلودش کنم یا وایسم Ganool یا YIFY بیاد ؟
حجمش 13gb ـه تقریبا 3 گیگش رو گرفتم.

Interstellar 2014 IMAX 1080p Bluray x264 DTS-EVO
EVO نگیری ایکاش اینکورد های بهتر هم هستن :D این EVO چندبار فیک داده بود قبلا از چشمم افتاده :D Amiabale نداده هنوز؟ اگه داده مال اونو دانلود کن. یا مثلا مال SPARK رو.
 

LiFE iS 5TrAnG3

⏎千ㄖ尺 乇ᐯ乇尺
کاربر فعال
Feb 22, 2011
14,165
70,071
نام
∂αнмα
Ganool ورژن های 700 تا 1.5 گیگی اش معروف هستند و بیشتر استفاده میشه و YIFY هم بیشتر بخطر ریلیز های BRRip اش معروف هستند که از همون 3 الی 50 گیگ هست.
بخاطر همین این دوتا کلا بهترین انکودر ها هستند.
هر دوی اینا بروزن وگرنه الان گروه های زیادی هستن یکی دو در میون فیلم انکود میکنند کیفیتاشون هم هیچ فرقی با اینا نداره ...
همون جور که گفتی Ganool هرچی دستش بیاد انکود ولی YIFY فقط از رو Blu-ray انکود میکنه. Ganool فیلم 2 ساعتی رو حدود 850 مگ در میاره YIFY همونو در میاره مثلا 867 مگ جفتشون از نظر کیفیت و حجم تو یـ رنجن این که میگی اگه حجم برات مهمه Ganool کیفیت مهمه YIFY اشتباهه همین ...
 

Asmodeus

Dark is the path in the absence of light
کاربر سایت
Apr 13, 2011
1,895
26
نام
کیوان
دوستان اهل فن؛ این کیفیتش خوبه یا نه؟ :D Interstellar (2014) 720p BrRip x264 - YIFY
 

کاربرانی که این گفتگو را مشاهده می‌کنند (کاربران: 0, مهمان: 1)

Top
رمز عبور خود را فراموش کرده اید؟